Ruthless Index du Forum
Ruthless
Forum de l'alliance Sans [Merci] du serveur 1
 
Ruthless Index du ForumFAQRechercherS’enregistrerConnexion

:: Rachel!Getting.Married 2008 1080 ::

 
Poster un nouveau sujet   Répondre au sujet    Ruthless Index du Forum -> Partie Publique -> La Taverne
Sujet précédent :: Sujet suivant  
Auteur Message
samoualbr


Hors ligne

Inscrit le: 02 Avr 2016
Messages: 40
Localisation: Nantes

MessagePosté le: Jeu 2 Juin - 02:50 (2016)    Sujet du message: Rachel!Getting.Married 2008 1080 Répondre en citant




Rachel Getting Married 2008 1080 > bit.ly/1t2vuJ4









Rachel Getting Married 2008 1080, dr dre the detox is coming

10cf746e54
Related Torrents. Castle, Jill Dalton and others Summary: A young woman who has been in and out from rehab for the past 10 years returns home for the weekend for her sister's wedding. FILENAME SIZE SEEDS PEERS ADDED UPD . Torrent: Rachel Getting Married 2008 1080p BluRay H264 AAC-RARBG Rachel Getting Married 2008 1080p BluRay H264 AAC-RARBG Jul 25, 2015 in Movies > Highres Movies. Required fields are marked *Comment Name * Email * Website Share Tweet Related movies Viking Quest (2014) BluRay 720p Savannah (2013) BluRay 720p 800MB Ganool Proof (1991) BluRay 720p I Love Your Moves (2012) BluRay 720p 750MB Ganool Shallow Grave (1994) CRITERION BluRay 720p Poltergeist (2015) 720p SCREENER Mad Mission (1982) BluRay 720p 700MB Ganool Deadly Weekend (2013) BluRay 720p Justice League: Doom (2012) BluRay 720p Horrible Bosses (2011) EXTENDED BluRay 720p Ganool 2016 All rights reserved Copyright ganool.kim. Rachel Getting Married LIMITED DVDRip XViD-PUKKA [Movie-Torrentz] Movies - Drama 707.3 MB 0 0 7 years 8 months .

Rachel Getting Married mov Movies - Samples/trailers 101.02 MB 0 0 7 years 8 months . TERPOPULER Despite the Falling Snow (2016) BluRay 720p 700MBDrama, Mystery, Romance Despite the Falling Snow (2016) BluRay 1080p 5.1CH x264Drama, Mystery, Romance Despite the Falling Snow (2016) DVDRip 350MBDrama, Mystery, Romance Gods of Egypt (2016) 3D BluRay 1080p 5.1CH Half-SBS x264Action, Adventure, Fantasy X-Men Apocalypse (2016) 720p HDCAM 900MAction, Adventure, Fantasy Sheep & Wolves (2016) 720p WEB-DL 550MBAnimation, Comedy, Family Lily Grace A Witch Story (2015) DVDRip 350MBThriller Manhattan Night (2016) 720p WEB-DL 700MBCrime, Drama, Mystery We Are Blood (2016) 720p WEBRip 600MBAction, Documentary, Sport Kill Command (2015) BluRay 1080p 5.1CH x264Action, Horror, Sci-Fi. Torrent: Rachel Getting Married 2008 1080p BluRay x264 DTS-FGT Rachel Getting Married 2008 1080p BluRay x264 DTS-FGT Oct 25, 2015 in Movies > Highres Movies. Rachel Getting Married LIMITED DVDRip XViD-PUKKA Movies - Comedy 708.65 MB 0 0 7 years 8 months . Rachel.Getting.Married.2008.720p.BluRay.x264-HD Movies - Misc 6.91 GB 3 1 4 years 5 months . Home Drama, RomanceDownload subtitles Rachel Getting Married (2008) BluRay 1080p FILM TERKAIT RATING 4.0HD01:21Nonton Despite the Falling Snow (2016) BluRay 1080p 5.1CH x264 Film Subtitle IndonesiaDrama, Mystery, RomanceSUBTITLES RATING 4.0HD01:21Nonton Despite the Falling Snow (2016) BluRay 720p 700MB Film Subtitle IndonesiaDrama, Mystery, RomanceSUBTITLES RATING 4.0HD01:21Nonton Despite the Falling Snow (2016) DVDRip 350MB Film Subtitle IndonesiaDrama, Mystery, RomanceSUBTITLES RATING 4.0HD01:21Nonton Manhattan Night (2016) 720p WEB-DL 700MB Film Subtitle IndonesiaCrime, Drama, MysterySUBTITLES RATING 4.0HD01:21Nonton One More Time (2015) DVDRip 400MB Film Subtitle IndonesiaComedy, Drama, MusicSUBTITLES Get Movie Subtitles Rachel Getting Married (2008) BluRay 1080p For free Synopsis A young woman who has been in and out of rehab for the past 10 years returns home for the weekend for her sister's wedding. Download torrent 2.15 GB seeders:3 leechers:0 Rachel Getting Married 2008 1080p BluRay H264 AAC-RARBG . Rachel Getting Married[2008]DvDrip[Eng]-FXG Movies - Drama 700.21 MB 18 2 7 years 8 months . Description Rachel.Getting.Married.2008.1080p.BluRay.H264.AAC-RARBG Screens : Mediainfo : Video ID : 1 Format : AVC Format/Info : Advanced Video Codec Format profile : [emailprotected] Format settings, CABAC : Yes Format settings, ReFrames : 4 frames Codec ID : avc1 Codec ID/Info : Advanced Video Coding Duration : 1h 52mn Bit rate : 2 500 Kbps Width : 1 920 pixels Height : 1 038 pixels Display aspect ratio : 1.85:1 Frame rate mode : Constant Frame rate : 23.976 fps Color space : YUV Chroma subsampling : 4:0 Bit depth : 8 bits Scan type : Progressive Bits/(Pixel*Frame) : 0.052 Stream size : 1.97 GiB (92%) Writing library : x264 core 144 r2525M 40bb568 Encoding settings : cabac=1 / ref=4 / deblock=1:-1:-1 / analyse=0x3:0x113 / me=umh / subme=9 / psy=1 / psyrd=1.00:0.15 / mixedref=1 / merange=24 / chromame=1 / trellis=2 / 8x8dct=1 / cqm=0 / deadzone=21,11 / fastpskip=1 / chromaqpoffset=-3 / threads=32 / lookaheadthreads=4 / slicedthreads=0 / nr=0 / decimate=1 / interlaced=0 / bluraycompat=0 / constrainedintra=0 / bframes=3 / bpyramid=2 / badapt=1 / bbias=0 / direct=1 / weightb=1 / opengop=0 / weightp=2 / keyint=250 / keyintmin=25 / scenecut=40 / intrarefresh=0 / rclookahead=50 / rc=2pass / mbtree=1 / bitrate=2500 / ratetol=1.0 / qcomp=0.60 / qpmin=0 / qpmax=69 / qpstep=4 / cplxblur=20.0 / qblur=0.5 / vbvmaxrate=31250 / vbvbufsize=31250 / nalhrd=none / filler=0 / ipratio=1.40 / aq=3.00 Encoded date : UTC 1904-01-01 00:00:00 Tagged date : UTC 1904-01-01 00:00:00 Audio ID : 2 Format : AAC Format/Info : Advanced Audio Codec Format profile : LC Codec ID : 40 Duration : 1h 52mn DurationLastFrame : 43ms Bit rate mode : Constant Bit rate : 224 Kbps Channel(s) : 2 channels Channel(s)Original : 6 channels Channel positions : Front: L C R, Side: L R, LFE Sampling rate : 48.0 KHz Compression mode : Lossy Stream size : 181 MiB (8%) Language : English Encoded date : UTC 1904-01-01 00:00:00 Tagged date : UTC 1904-01-01 00:00:00 . Rachel Getting Married 2008 1080p BluRay H264 AAC-RARBG Torrents.

assassin's creed reloadedmonster greek audiolets be cops nl subsalektra blue my firstthe saw doctorsi frankenstein 2014va jazz 2015adriana chechik in dp mewindows 7 aio 32 64gta ultimate trainer


Revenir en haut
Publicité






MessagePosté le: Jeu 2 Juin - 02:50 (2016)    Sujet du message: Publicité

PublicitéSupprimer les publicités ?
Revenir en haut
Montrer les messages depuis:   
Poster un nouveau sujet   Répondre au sujet    Ruthless Index du Forum -> Partie Publique -> La Taverne Toutes les heures sont au format GMT + 2 Heures
Page 1 sur 1

 
Sauter vers:  

Index | Panneau d’administration | Creer un forum | Forum gratuit d’entraide | Annuaire des forums gratuits | Signaler une violation | Conditions générales d'utilisation
Flowers of Evil © theme by larme d'ange 2006
Powered by phpBB © 2001, 2005 phpBB Group
Traduction par : phpBB-fr.com